#TITLE:Tiem Banh Dau Tay;
#SUBTITLE:;
#ARTIST:Khong Tu Quynh & Thien Minh;
#TITLETRANSLIT:;
#SUBTITLETRANSLIT:;
#ARTISTTRANSLIT:Khong Tu Quynh & Thien Minh;
#CREDIT:;
#BANNER:Tiem Banh Dau Tay-bn.png;
#BACKGROUND:Tiem Banh Dau Tay-bg.png;
#LYRICSPATH:;
#CDTITLE:pm4cd.png;
#MUSIC:Tiem Banh Dau Tay.mp3;
#OFFSET:-0.080;
#SAMPLESTART:48.015;
#SAMPLELENGTH:20.000;
#SELECTABLE:YES;
#BPMS:0.000=108.040;
#STOPS:;
#BGCHANGES:;
// cache tags:
#FIRSTBEAT:22.750;
#LASTBEAT:314.000;
#SONGFILENAME:Songs/Music V.I.P ^_^/Tiem Banh Dau Tay/Tiem Banh Dau Tay.sm;
#HASMUSIC:1;
#HASBANNER:1;
#MUSICLENGTH:176.953;
// end cache tags

//---------------dance-single - ----------------
#NOTES:
     dance-single:
     :
     Hard:
     10:
     0.801,0.865,1.000,0.153,1.000,656.000,295.000,27.000,0.000,47.000:
0000
0000
0000
0000
,
0000
0000
0000
0000
,
0000
0000
0000
0000
,
0000
0000
0000
0000
,
0000
0000
0000
0000
,
0000
0000
0000
0000
0000
0000
0000
0000
0000
0000
0000
0100
0000
0001
0100
0010
,
0000
0100
0000
1000
0000
0100
0000
1010
0000
0000
0000
0001
0000
0010
0100
1000
,
0000
0100
0000
0010
0000
1000
0000
0101
0000
0001
0000
1000
0000
0100
0010
0001
,
0000
1000
0000
0100
0000
0010
0000
1001
0000
0000
0000
0010
0000
0001
0010
0100
,
0000
1000
0000
0010
0000
0001
0000
1010
0000
1000
0000
0100
0000
0010
0000
1001
,
0000
0010
0000
0100
0000
0001
0100
1010
0000
0100
0000
1010
0000
0100
0000
0010
,
0000
0001
0000
0010
0000
0001
0010
1001
0000
0100
0000
0010
0000
0001
0000
0010
,
0000
0100
0000
0001
0000
1000
0010
0101
0000
1000
0000
0010
0000
0100
0100
1001
,
0000
0010
0000
0100
0000
1000
0100
1011
0000
0100
0000
1001
0000
0101
0000
0110
,
0000
0000
1100
0000
0011
1100
0000
0011
0000
1000
0000
0101
0000
0011
0000
0101
,
0000
0000
0110
0000
1001
0110
0000
1010
0000
0001
0000
1001
0000
1010
0000
1001
,
0000
0000
0101
0000
1010
0101
0000
0011
0000
1000
0000
0101
0000
1010
0100
0011
,
0000
0000
1100
0000
0001
1100
0000
1001
0000
0010
0000
1100
0000
1100
0000
0101
,
0000
0101
0000
1010
0000
1010
0000
0011
0000
0011
0000
0110
0000
0110
0000
1100
,
0000
1100
0000
0011
0000
0011
0000
1001
0000
1001
0000
0101
0000
0101
0000
1010
,
0000
1010
0000
0011
0000
0011
0000
0110
0000
0110
0000
1100
0010
0001
0010
0100
,
1000
0100
0010
0102
0010
0100
1000
0100
0010
0100
1000
0110
0003
0101
0000
1010
,
0000
0000
0011
0000
0101
0011
0000
1001
0000
0000
0000
1100
0000
1100
0000
0011
,
0000
0000
1001
0000
1100
1010
0000
1001
0100
0010
0100
1010
0000
0001
0000
0110
,
1000
0100
0010
0101
0000
1000
0000
1010
0001
0010
0100
0011
0100
1000
0100
1001
,
0100
0010
0100
0011
0110
1100
0000
1001
0000
0110
0000
1100
0000
0101
0000
1010
,
0000
1001
0000
0110
0000
0000
0000
0101
0000
1010
0000
0101
0000
0000
1100
0011
,
0000
0110
0000
1100
0000
0000
0000
1001
0010
0001
0010
1100
0000
1001
0000
0101
,
0010
0001
0010
1001
0000
0101
0000
1010
0001
0010
0100
0011
0100
1000
0100
1001
,
0010
0100
1000
0022
0000
1000
0000
1100
0000
0200
0000
1033
0000
2001
0000
0311
,
0000
0000
0011
0000
0110
0011
0000
3121
0000
0000
0000
0131
0010
0100
0010
0001
,
0010
0100
1000
0100
0000
0000
0010
0001
0000
1000
0100
0011
0000
0001
0010
1100
,
0000
1000
0100
0010
0001
0010
0100
1001
0000
0000
0000
0001
0010
0001
0010
0100
,
1000
0100
0010
0001
0010
0100
1000
0100
0010
0001
0010
0101
0000
1000
0100
1001
,
0000
0010
0100
0010
0100
1000
0100
0011
0000
0000
0000
1101
0010
1000
0100
0011
,
0100
0001
0010
1100
0001
0010
1000
0011
0000
1001
0100
0011
0000
0101
0010
1001
,
0000
1100
0010
0101
0010
1100
0010
1001
0000
0000
0000
1100
0010
0001
0010
1001
,
0010
0100
1000
0101
1000
0001
0100
1001
0000
1000
1000
1100
0000
0010
0010
1010
,
0000
1001
0001
0011
0001
0101
0001
1011
0000
0000
0000
0100
0000
0010
0000
0101
,
0000
0010
0000
0100
0000
1000
0000
0011
0000
0100
0000
0001
0000
0010
0000
1100
,
0000
0010
0000
1000
0000
0100
0000
1001
0000
0010
0000
0001
0000
0010
0000
1100
,
0000
0001
0000
0010
0000
1000
0000
0110
0000
0001
0000
1000
0000
0101
1000
0011
,
0000
1000
0000
0101
0000
0010
0001
1110
0000
0001
0000
2211
0000
0011
0000
3311
,
0000
0100
0000
1212
0000
1010
0000
1313
0000
0100
0000
1001
0000
0010
0000
0101
,
0000
0000
0110
0000
1100
0101
0000
0110
0000
1000
0000
1212
0000
1010
0000
1313
,
0000
0001
0000
2211
0000
0011
0000
3311
0000
1000
0000
0101
0000
1100
0100
0101
,
0000
0000
0011
0000
1010
0101
0000
1001
0000
0100
0000
1001
0000
1001
0000
0110
,
0000
0110
0000
1100
0000
1100
0000
0011
0000
0011
0000
1010
0000
1010
0000
0101
,
0000
0101
0000
1100
0000
1100
0000
0011
0100
0011
0100
1010
0000
1010
0000
1100
,
0010
1100
0010
1001
0000
1001
0000
0110
0001
0110
1000
0101
0010
0001
0010
0100
,
1000
0100
0010
0201
0010
1000
0010
0001
0010
1000
0010
1301
0000
1001
0000
0110
,
0000
0000
1100
0000
0101
0011
0000
1001
0000
0000
0000
1100
0000
1100
0000
0011
,
0000
0000
0101
0000
0110
1001
0000
0110
0001
0010
0100
1100
0000
0101
0000
1001
,
0100
0010
0001
0011
0000
1000
0000
0011
0100
1000
0010
1001
0100
0010
0001
1100
,
0001
0010
1000
0101
1000
0010
0100
1001
0000
1100
0000
0011
0000
0110
0000
1001
,
0000
0101
0000
1100
0000
0000
0000
1001
0000
0101
0000
0110
0000
0000
0101
1010
,
0000
0011
0000
0110
0000
1001
0000
0011
1000
0001
0010
1100
0000
0110
0000
1100
,
0001
1000
0010
0101
0000
1001
0000
0110
1000
0100
0001
1001
1000
0100
0010
1100
,
0010
0100
1000
2020
0100
0001
0100
0101
0000
3130
0000
0010
0000
0100
0000
1010
,
0000
0100
0000
0010
0000
0001
0000
1100
0000
0001
0000
0010
0000
0100
0000
0011
,
0000
0100
0000
0010
0000
0001
0000
1010
0000
0100
0000
1001
0000
0010
0000
0110
,
0000
1000
0000
0101
0000
0010
0000
1001
0000
1000
0000
0011
0000
0100
0000
1100
,
0000
0010
0000
0101
0000
1000
0000
0111
0000
1001
0000
1010
0000
0110
0000
0101
,
0000
0011
0000
0110
0000
0000
0000
0101
0000
1010
0000
0101
0000
0000
0110
1001
,
0000
0011
0000
1001
0000
0101
0000
1010
0100
1000
0100
0011
0000
0010
0000
1001
,
0010
0100
0010
1010
0000
0100
0000
0101
0010
0100
0010
1100
0010
0100
1000
0110
,
0001
0010
0100
0022
0000
1000
0000
1100
0000
0233
0000
2002
0000
0000
0000
0010
,
0000
0003
0011
3000
0001
0311
0000
0220
0000
0000
0000
0000
0000
0030
0000
0000
,
0010
0000
0000
0000
0000
0000
0000
0001
0000
0000
0000
0000
0000
0000
0310
0000
0000
0000
0000
0000
0000
1000
0000
0000
0000
0000
0000
0000
0100
0000
0000
0000
,
0000
0000
0000
0000
0010
0000
0000
0000
0000
0000
0000
0000
0000
0000
0000
0000
0000
0000
0000
0001
0000
0000
0000
0000
0000
0010
0000
0000
0000
0000
0000
0100
,
0000
0000
0000
0000
0000
0000
0000
0000
0000
0010
0000
0000
0000
0001
0000
0000
0000
0000
0000
0000
0100
0000
0000
0000
0000
0000
1000
0000
0000
0000
0000
0000
,
0000
0000
0000
0000
0000
0000
0000
0000
0000
0001
0000
0000
0000
0000
0000
0100
0000
0000
0000
0000
0000
0000
0010
0000
0000
0000
0000
0000
0000
0000
0000
0000
,
0000
0000
0000
0000
0000
0100
0000
0000
0000
0000
0000
0000
0010
0000
0000
0000
0000
0000
0001
0000
0000
0000
0000
0000
0000
0000
0000
0000
0000
0000
0000
0000
,
0000
1000
0000
0000
0100
0000
0000
0010
0000
0000
0000
0001
0000
0000
0000
0010
,
0000
0000
0000
0000
0000
0100
0000
0000
0000
0000
0000
0000
2000
0000
0000
0000
0000
0000
0000
0000
0000
0000
0000
0000
0000
0000
0100
0000
0000
0000
0000
0000
,
0000
0000
0001
0000
0000
0000
0000
0000
0000
3100
0000
0000
0000
0000
0000
0000
0000
0000
0000
0000
0000
0000
0000
0000
0020
0000
0000
0000
0000
0000
0000
0000
,
0000
0000
0000
0000
0000
0000
0000
0000
0200
0000
0000
0000
0000
0000
0000
0001
0000
0000
0000
0000
0000
1000
0000
0000
0000
0000
0000
0000
0001
0000
0000
0000
,
0000
0000
0000
0000
1000
0000
0000
0000
0000
0000
0000
0000
0331
0000
0000
0000
0000
0000
0000
0000
0010
0000
0000
0000
0000
0000
0000
0000
0000
0000
0000
1000
,
0000
0000
0000
0000
0000
0000
0000
0000
0000
0000
0000
0000
0000
0001
0010
0100
1000
0000
0000
0000
0000
0000
0000
0000
0000
0000
0000
0000
0000
0000
0000
0000
;

//---------------dance-single - ----------------
#NOTES:
     dance-single:
     :
     Easy:
     1:
     0.000,0.000,0.000,0.000,0.000,0.000,0.000,0.000,0.000,0.000:
0000
0000
0000
0000
;

//---------------dance-single - Copied from----------------
#NOTES:
     dance-single:
     Copied from:
     Medium:
     1:
     0.000,0.000,0.000,0.000,0.000,0.000,0.000,0.000,0.000,0.000:
0000
0000
0000
0000
;
